<?xml version="1.0" standalone="no"?>
<!DOCTYPE svg PUBLIC "-//W3C//DTD SVG 1.1//EN" "http://www.w3.org/Graphics/SVG/1.1/DTD/svg11.dtd">
<svg xmlns="http://www.w3.org/2000/svg">
<defs >
<font id="Mulish" horiz-adv-x="581" ><font-face
    font-family="Mulish SemiBold"
    units-per-em="1000"
    panose-1="0 0 0 0 0 0 0 0 0 0"
    ascent="1005"
    descent="-250"
    alphabetic="0" />
<glyph unicode=" " glyph-name="space" horiz-adv-x="267" />
<glyph unicode="!" glyph-name="exclam" horiz-adv-x="237" d="M88 195L56 705H181L150 195H88ZM59 0V119H178V0H59Z" />
<glyph unicode="&quot;" glyph-name="quotedbl" horiz-adv-x="417" d="M82 422L57 705H175L150 422H82ZM268 422L243 705H361L336 422H268Z" />
<glyph unicode="#" glyph-name="numbersign" horiz-adv-x="600" d="M82 0L118 177H33V246H130L176 467H54V536H189L224 705H298L264 536H409L443 705H517L483 536H567V467H469L424 246H546V177H411L375 0H300L336 177H192L158 0H82ZM205 246H350L394 467H250L205 246Z" />
<glyph unicode="$" glyph-name="dollar" horiz-adv-x="600" d="M269 -115V14L289 -5Q216 -4 152 16T40 77L74 159Q122 121 176 102T300 83Q381 83 419 113T458 191Q458 230 431 253T338 290L235 312Q143 332 99 378T55 500Q55 559 83 605T163 678T284 709L269
695V820H351V695L334 709Q390 707 445 687T538 626L505 547Q466 585 417 603T309 622Q237 622 196 589T154 503Q154 463 180 438T266 400L369 378Q465 358 512 314T559 197Q559 140 530 97T451 28T334 -4L351 15V-115H269Z" />
<glyph unicode="%" glyph-name="percent" horiz-adv-x="943" d="M307 0H219L637 705H725L307 0ZM224 283Q141 283 94 340T46 499Q46 601 94 657T224 714Q307 714 354 657T401 499Q401 398 354 341T224 283ZM224 351Q267 351 291 387T316 499Q316 575 292 610T224
646Q181 646 157 611T132 499Q132 423 156 387T224 351ZM720 -9Q637 -9 590 48T543 207Q543 309 590 365T720 422Q803 422 850 365T897 207Q897 106 850 49T720 -9ZM720 59Q763 59 787 95T812 207Q812 283 788 318T720 354Q677 354 653 319T628 207Q628 131 652
95T720 59Z" />
<glyph unicode="&amp;" glyph-name="ampersand" horiz-adv-x="678" d="M655 -9Q609 9 568 38T496 97L519 96Q475 47 414 19T283 -9Q208 -9 155 14T73 78T44 174Q44 243 84 291T196 384L229 404L214 385Q169 432 148 471T127 554Q127 602 150 638T214 694T313 714Q386
714 432 675T479 566Q479 530 465 498T417 435T326 372L329 393L514 196H493Q519 238 533 295T550 418H636Q634 335 612 263T553 135L552 162Q578 134 614 108T692 64L655 -9ZM287 71Q343 71 386 92T462 156L460 130L246 353L286 352L256 334Q218 310 193 287T156
238T144 180Q144 129 180 100T287 71ZM313 643Q271 643 246 619T220 555Q220 535 227 517T251 478T297 425L271 423Q337 461 367 492T397 562Q397 599 374 621T313 643Z" />
<glyph unicode="&apos;" glyph-name="quotesingle" horiz-adv-x="231" d="M82 422L57 705H175L150 422H82Z" />
<glyph unicode="(" glyph-name="parenleft" horiz-adv-x="335" d="M228 -180Q184 -106 156 -35T115 110T102 263Q102 343 115 416T156 560T228 705H310Q258 592 233 483T207 263Q207 153 232 44T310 -180H228Z" />
<glyph unicode=")" glyph-name="parenright" horiz-adv-x="335" d="M107 -180H25Q77 -67 103 43T129 263Q129 372 103 482T25 705H107Q152 631 180 560T220 416T233 263Q233 183 221 110T180 -35T107 -180Z" />
<glyph unicode="*" glyph-name="asterisk" horiz-adv-x="456" d="M142 357L82 401L178 522L28 565L52 636L196 582L190 736H265L259 582L405 636L427 565L279 523L374 401L314 357L228 487L142 357Z" />
<glyph unicode="+" glyph-name="plus" horiz-adv-x="600" d="M262 38V250H53V324H262V531H338V324H547V250H338V38H262Z" />
<glyph unicode="," glyph-name="comma" horiz-adv-x="237" d="M110 -123L66 -89Q95 -58 105 -32T116 22L138 0H59V119H178V38Q178 -7 163 -45T110 -123Z" />
<glyph unicode="-" glyph-name="hyphen" horiz-adv-x="433" d="M70 234V315H363V234H70Z" />
<glyph unicode="." glyph-name="period" horiz-adv-x="237" d="M59 0V119H178V0H59Z" />
<glyph unicode="/" glyph-name="slash" horiz-adv-x="300" d="M61 -57H-24L238 750H323L61 -57Z" />
<glyph unicode="0" glyph-name="zero" horiz-adv-x="600" d="M300 -9Q178 -9 113 84T47 353Q47 531 112 622T300 714Q423 714 488 623T553 354Q553 178 488 85T300 -9ZM300 78Q377 78 414 145T452 354Q452 497 415 562T300 628Q224 628 186 563T148 355Q148 212
186 145T300 78Z" />
<glyph unicode="1" glyph-name="one" horiz-adv-x="600" d="M120 0V87H284V617H336L136 495V595L313 705H388V87H542V0H120Z" />
<glyph unicode="2" glyph-name="two" horiz-adv-x="600" d="M83 0V77L325 330Q372 379 395 422T418 511Q418 568 383 597T280 626Q227 626 181 607T91 549L55 628Q97 667 159 690T292 714Q402 714 461 664T521 521Q521 455 489 395T393 270L184 59V87H550V0H83Z" />
<glyph unicode="3" glyph-name="three" horiz-adv-x="600" d="M293 -9Q221 -9 155 12T45 74L81 153Q130 115 181 97T290 79Q364 79 402 110T441 199Q441 256 403 285T289 315H180V399H281Q345 399 383 431T421 520Q421 571 386 598T286 626Q176 626 93 549L58
628Q99 669 162 691T294 714Q400 714 461 666T522 531Q522 466 486 420T386 359V370Q461 358 501 311T542 192Q542 98 476 45T293 -9Z" />
<glyph unicode="4" glyph-name="four" horiz-adv-x="600" d="M372 0V146H46V220L389 705H473V227H578V146H473V0H372ZM372 227V582H395L127 202V227H372Z" />
<glyph unicode="5" glyph-name="five" horiz-adv-x="600" d="M310 -9Q264 -9 219 1T135 29T67 74L103 153Q151 116 201 98T308 79Q379 79 419 116T460 215Q460 279 422 318T315 358Q268 358 230 339T162 281H90V705H517V618H189V364H163Q190 402 235 423T338 444Q406
444 456 416T533 338T561 220Q561 152 531 101T444 20T310 -9Z" />
<glyph unicode="6" glyph-name="six" horiz-adv-x="600" d="M324 -9Q193 -9 123 82T52 337Q52 459 88 542T190 670T351 714Q407 714 463 693T557 632L520 554Q483 590 439 608T350 626Q253 626 202 559T151 357V272H141Q148 326 175 365T245 426T341 447Q404 447
452 418T529 339T557 223Q557 156 527 103T445 21T324 -9ZM318 75Q360 75 391 93T441 143T459 219Q459 262 441 294T392 344T318 363Q276 363 244 345T194 294T176 219Q176 176 194 144T244 93T318 75Z" />
<glyph unicode="7" glyph-name="seven" horiz-adv-x="600" d="M100 0L446 657V617H60V705H540V628L214 0H100Z" />
<glyph unicode="8" glyph-name="eight" horiz-adv-x="600" d="M300 -9Q178 -9 110 43T42 188Q42 262 87 310T205 369V351Q139 365 100 412T60 526Q60 614 124 664T300 714Q413 714 477 664T541 526Q541 459 504 412T401 352V369Q473 359 516 311T559 188Q559 95
491 43T300 -9ZM300 73Q381 73 421 103T461 195Q461 256 421 286T300 316Q219 316 179 286T139 195Q139 134 179 104T300 73ZM300 398Q370 398 406 429T443 516Q443 570 407 601T300 632Q231 632 194 601T157 516Q157 461 194 430T300 398Z" />
<glyph unicode="9" glyph-name="nine" horiz-adv-x="600" d="M250 -9Q194 -9 138 13T44 73L81 152Q118 116 162 98T251 79Q347 79 398 146T450 348V433H460Q454 380 426 340T356 279T260 258Q198 258 149 287T72 367T44 482Q44 550 74 602T156 684T276 714Q408
714 478 624T549 368Q549 247 514 163T411 35T250 -9ZM283 343Q325 343 357 361T407 411T425 486Q425 529 407 561T357 612T283 631Q241 631 210 613T160 562T142 486Q142 444 160 412T209 361T283 343Z" />
<glyph unicode=":" glyph-name="colon" horiz-adv-x="237" d="M59 385V504H178V385H59ZM59 0V119H178V0H59Z" />
<glyph unicode=";" glyph-name="semicolon" horiz-adv-x="237" d="M110 -123L66 -89Q95 -58 105 -32T116 22L144 0H59V119H178V38Q178 -7 163 -45T110 -123ZM59 385V504H178V385H59Z" />
<glyph unicode="&lt;" glyph-name="less" horiz-adv-x="600" d="M546 33L53 248V326L546 541V459L89 262V312L546 115V33Z" />
<glyph unicode="=" glyph-name="equal" horiz-adv-x="600" d="M53 350V424H547V350H53ZM53 151V224H547V151H53Z" />
<glyph unicode="&gt;" glyph-name="greater" horiz-adv-x="600" d="M54 33V115L511 312V262L54 459V541L547 326V248L54 33Z" />
<glyph unicode="?" glyph-name="question" horiz-adv-x="455" d="M172 195V230Q172 278 190 321T256 415Q293 455 308 484T323 545Q323 584 294 606T215 628Q176 628 139 617T69 587V677Q103 695 144 704T228 714Q285 714 330 697T400 644T426 556Q426 524 415
494T383 435T330 375Q281 328 262 293T238 222L234 195H172ZM143 0V119H263V0H143Z" />
<glyph unicode="@" glyph-name="at" horiz-adv-x="967" d="M494 -164Q396 -164 316 -134T179 -46T90 91T59 270Q59 369 91 451T183 592T326 682T510 714Q630 714 719 668T859 539T909 342Q909 256 885 193T816 94T711 59Q651 59 619 93T588 187L612 188Q586 125
540 92T438 59Q358 59 315 108T271 243Q271 317 299 374T377 464T490 497Q546 497 581 470T627 393H613L631 488H709L664 237Q662 222 661 210T659 186Q659 154 673 138T717 122Q754 122 782 149T826 226T842 342Q842 437 801 505T686 611T509 648Q396 648 311
602T180 470T133 270Q133 156 177 73T303 -54T494 -98Q575 -98 640 -75T751 -7L787 -64Q738 -112 662 -138T494 -164ZM451 126Q494 126 527 151T580 220T600 322Q600 376 576 402T502 429Q460 429 426 406T372 340T353 244Q353 187 378 157T451 126Z" />
<glyph unicode="A" glyph-name="A" horiz-adv-x="742" d="M10 0L324 705H413L732 0H625L538 200L582 172H155L202 200L115 0H10ZM367 591L215 232L191 255H546L526 232L371 591H367Z" />
<glyph unicode="B" glyph-name="B" horiz-adv-x="685" d="M83 0V705H377Q491 705 552 657T614 522Q614 457 575 413T468 354V369Q546 359 589 314T632 195Q632 101 569 51T390 0H83ZM184 81H379Q450 81 490 108T531 199Q531 263 491 290T379 317H184V81ZM184 397H361Q437
397 475 426T513 511Q513 567 475 596T361 625H184V397Z" />
<glyph unicode="C" glyph-name="C" horiz-adv-x="685" d="M400 -9Q292 -9 216 35T100 160T59 353Q59 464 99 545T216 670T400 714Q475 714 534 692T637 628L601 545Q553 586 508 604T402 622Q288 622 228 552T168 353Q168 224 228 154T402 83Q462 83 507 101T601
161L637 78Q593 36 534 14T400 -9Z" />
<glyph unicode="D" glyph-name="D" horiz-adv-x="754" d="M83 0V705H327Q446 705 528 664T653 545T696 353Q696 241 654 162T529 42T327 0H83ZM187 87H321Q457 87 523 153T590 353Q590 487 524 552T321 618H187V87Z" />
<glyph unicode="E" glyph-name="E" horiz-adv-x="591" d="M83 0V705H545V622H184V400H522V316H184V84H545V0H83Z" />
<glyph unicode="F" glyph-name="F" horiz-adv-x="567" d="M83 0V705H535V622H187V396H512V313H187V0H83Z" />
<glyph unicode="G" glyph-name="G" horiz-adv-x="735" d="M415 -9Q298 -9 219 34T99 159T59 352Q59 464 101 545T223 670T415 714Q492 714 549 693T651 630L614 549Q582 576 552 592T490 615T415 623Q294 623 231 552T168 351Q168 219 228 150T419 81Q464 81 508
89T593 115L573 66V297H399V375H660V42Q614 19 548 5T415 -9Z" />
<glyph unicode="H" glyph-name="H" horiz-adv-x="770" d="M83 0V705H187V401H583V705H687V0H583V314H187V0H83Z" />
<glyph unicode="I" glyph-name="I" horiz-adv-x="270" d="M83 0V705H187V0H83Z" />
<glyph unicode="J" glyph-name="J" horiz-adv-x="344" d="M84 -187Q68 -187 46 -185T1 -178V-94Q20 -98 37 -100T67 -103Q113 -103 135 -75T157 14V705H261V13Q261 -53 242 -97T185 -164T84 -187Z" />
<glyph unicode="K" glyph-name="K" horiz-adv-x="648" d="M83 0V705H187V388H189L513 705H642L262 339L263 388L668 0H535L189 329H187V0H83Z" />
<glyph unicode="L" glyph-name="L" horiz-adv-x="552" d="M83 0V705H187V89H533V0H83Z" />
<glyph unicode="M" glyph-name="M" horiz-adv-x="864" d="M84 0V705H175L447 92H417L689 705H779V0H685V564H718L464 0H399L145 564H179V0H84Z" />
<glyph unicode="N" glyph-name="N" horiz-adv-x="750" d="M83 0V705H163L596 137H571V705H668V0H589L157 568H180V0H83Z" />
<glyph unicode="O" glyph-name="O" horiz-adv-x="779" d="M59 353Q59 464 98 545T211 670T389 714Q491 714 565 670T679 545T720 354Q720 243 680 162T565 36T389 -9Q286 -9 212 35T99 161T59 353ZM168 353Q168 225 224 153T389 81Q495 81 553 152T611 353Q611
482 554 553T389 624Q280 624 224 553T168 353Z" />
<glyph unicode="P" glyph-name="P" horiz-adv-x="658" d="M83 0V705H382Q495 705 555 651T616 500Q616 404 556 349T382 294H187V0H83ZM187 377H371Q442 377 478 409T514 500Q514 558 478 590T371 622H187V377Z" />
<glyph unicode="Q" glyph-name="Q" horiz-adv-x="779" d="M579 -192Q548 -173 517 -143T458 -77T410 -2L496 33Q522 -19 563 -61T649 -134L579 -192ZM59 353Q59 464 98 545T211 670T389 714Q491 714 565 670T679 545T720 354Q720 243 680 162T565 36T389 -9Q286
-9 212 35T99 161T59 353ZM168 353Q168 225 224 153T389 81Q495 81 553 152T611 353Q611 482 554 553T389 624Q280 624 224 553T168 353Z" />
<glyph unicode="R" glyph-name="R" horiz-adv-x="697" d="M83 0V705H381Q494 705 556 652T618 502Q618 439 590 394T511 326T391 302L407 318H434Q475 318 507 297T561 230L662 0H548L448 231Q433 272 402 284T324 296H187V0H83ZM187 375H364Q439 375 477 407T516
499Q516 560 478 591T364 622H187V375Z" />
<glyph unicode="S" glyph-name="S" horiz-adv-x="633" d="M321 -9Q236 -9 167 12T47 74L82 156Q116 130 152 113T230 88T321 79Q405 79 444 109T484 188Q484 230 457 253T360 290L251 312Q154 332 107 377T59 502Q59 566 93 614T187 688T329 714Q404 714 467 693T573
629L539 550Q494 589 443 607T327 626Q250 626 207 594T163 507Q163 463 190 438T282 400L391 379Q492 358 540 315T588 195Q588 134 556 88T463 17T321 -9Z" />
<glyph unicode="T" glyph-name="T" horiz-adv-x="611" d="M252 0V618H11V705H597V618H356V0H252Z" />
<glyph unicode="U" glyph-name="U" horiz-adv-x="735" d="M369 -9Q222 -9 151 65T79 284V705H183V286Q183 184 227 133T369 81Q461 81 508 132T555 286V705H657V284Q657 139 584 65T369 -9Z" />
<glyph unicode="V" glyph-name="V" horiz-adv-x="708" d="M308 0L-2 705H110L374 87H338L603 705H710L399 0H308Z" />
<glyph unicode="W" glyph-name="W" horiz-adv-x="1116" d="M277 0L30 705H138L343 96H306L523 705H602L806 96H772L984 705H1086L837 0H748L550 580H571L365 0H277Z" />
<glyph unicode="X" glyph-name="X" horiz-adv-x="661" d="M1 0L287 381V339L13 705H135L347 413H315L525 705H648L374 339V381L660 0H537L312 308H349L123 0H1Z" />
<glyph unicode="Y" glyph-name="Y" horiz-adv-x="617" d="M256 0V331L279 265L-18 705H102L323 368H298L519 705H635L339 265L360 331V0H256Z" />
<glyph unicode="Z" glyph-name="Z" horiz-adv-x="601" d="M44 0V76L456 653V618H44V705H555V629L142 52V87H567V0H44Z" />
<glyph unicode="[" glyph-name="bracketleft" horiz-adv-x="334" d="M104 -180V705H323V627H204V-102H323V-180H104Z" />
<glyph unicode="\" glyph-name="backslash" horiz-adv-x="300" d="M238 -57L-24 750H61L323 -57H238Z" />
<glyph unicode="]" glyph-name="bracketright" horiz-adv-x="334" d="M11 -180V-102H130V627H11V705H229V-180H11Z" />
<glyph unicode="^" glyph-name="asciicircum" horiz-adv-x="600" d="M45 141L261 628H338L555 141H474L274 593H324L125 141H45Z" />
<glyph unicode="_" glyph-name="underscore" horiz-adv-x="505" d="M10 -63V0H495V-63H10Z" />
<glyph unicode="`" glyph-name="grave" horiz-adv-x="500" d="M215 553L79 755H182L285 553H215Z" />
<glyph unicode="a" glyph-name="a" horiz-adv-x="609" d="M267 -9Q200 -9 150 22T73 112T45 252Q45 334 72 392T150 481T267 513Q333 513 382 480T447 390H436L446 504H544Q541 473 539 443T536 383V0H435V112H446Q430 56 381 24T267 -9ZM292 70Q357 70 396 116T436
252Q436 342 397 387T292 433Q226 433 187 388T147 252Q147 162 186 116T292 70Z" />
<glyph unicode="b" glyph-name="b" horiz-adv-x="609" d="M343 -9Q277 -9 228 24T163 114H174V0H74V736H175V392H163Q180 448 228 480T343 513Q410 513 460 482T537 392T565 251Q565 170 538 112T460 22T343 -9ZM318 70Q383 70 423 115T463 251Q463 342 423 387T318
433Q252 433 213 388T173 252Q173 162 212 116T318 70Z" />
<glyph unicode="c" glyph-name="c" horiz-adv-x="499" d="M295 -9Q219 -9 163 22T76 113T45 255Q45 336 76 394T163 482T295 513Q344 513 390 497T466 450L433 379Q405 406 370 419T302 433Q230 433 189 387T148 254Q148 166 189 119T302 72Q334 72 369 84T433
125L466 54Q435 24 389 8T295 -9Z" />
<glyph unicode="d" glyph-name="d" horiz-adv-x="609" d="M267 -9Q201 -9 151 22T73 112T45 252Q45 334 72 392T150 481T267 513Q332 513 381 481T447 392H435V736H536V0H436V114H448Q431 57 382 24T267 -9ZM292 70Q357 70 397 116T437 252Q437 342 397 387T292
433Q226 433 187 388T147 252Q147 162 186 116T292 70Z" />
<glyph unicode="e" glyph-name="e" horiz-adv-x="546" d="M307 -9Q185 -9 115 60T45 251Q45 330 75 389T160 480T287 513Q358 513 406 483T479 399T504 270V238H124V296H435L418 283Q418 358 385 399T288 441Q218 441 180 393T142 259V249Q142 160 185 115T309
70Q353 70 391 82T465 124L498 55Q463 24 413 8T307 -9Z" />
<glyph unicode="f" glyph-name="f" horiz-adv-x="352" d="M104 0V426H6V504H132L104 478V558Q104 647 149 693T281 740Q302 740 325 737T363 727V645Q351 650 334 653T298 657Q269 657 248 646T216 611T204 552V484L189 504H341V426H205V0H104Z" />
<glyph unicode="g" glyph-name="g" horiz-adv-x="612" d="M301 -224Q233 -224 178 -208T78 -160L103 -86Q134 -107 164 -119T227 -138T295 -144Q367 -144 403 -108T440 -2V133H450Q434 77 385 45T270 12Q201 12 151 42T73 129T45 263Q45 340 72 396T150 482T270
513Q336 513 384 481T449 392L440 400L449 504H547Q543 473 541 443T539 383V10Q539 -104 479 -164T301 -224ZM294 91Q360 91 399 136T439 263Q439 345 400 389T294 433Q226 433 187 389T147 263Q147 181 186 136T294 91Z" />
<glyph unicode="h" glyph-name="h" horiz-adv-x="593" d="M74 0V736H175V397H161Q183 454 232 483T345 513Q435 513 479 464T523 314V0H422V308Q422 373 397 402T316 432Q252 432 214 393T175 288V0H74Z" />
<glyph unicode="i" glyph-name="i" horiz-adv-x="249" d="M74 0V504H175V0H74ZM66 609V714H183V609H66Z" />
<glyph unicode="j" glyph-name="j" horiz-adv-x="249" d="M15 -221Q-1 -221 -22 -218T-60 -208V-126Q-47 -130 -32 -133T-2 -137Q37 -137 57 -113T78 -32V504H179V-39Q179 -129 139 -175T15 -221ZM69 609V714H187V609H69Z" />
<glyph unicode="k" glyph-name="k" horiz-adv-x="532" d="M74 0V736H175V284H177L397 504H522L256 239L257 284L544 0H416L177 231H175V0H74Z" />
<glyph unicode="l" glyph-name="l" horiz-adv-x="249" d="M74 0V736H175V0H74Z" />
<glyph unicode="m" glyph-name="m" horiz-adv-x="888" d="M74 0V383Q74 412 72 442T66 504H164L173 398H161Q182 453 225 483T330 513Q392 513 431 484T486 393H470Q490 448 538 480T649 513Q733 513 775 464T817 312V0H716V307Q716 373 694 402T621 432Q563 432
529 392T495 284V0H394V307Q394 373 372 402T299 432Q241 432 208 392T175 284V0H74Z" />
<glyph unicode="n" glyph-name="n" horiz-adv-x="593" d="M74 0V383Q74 412 72 442T66 504H164L173 398H161Q184 454 232 483T343 513Q432 513 477 464T523 312V0H422V306Q422 373 396 402T315 432Q251 432 213 393T175 286V0H74Z" />
<glyph unicode="o" glyph-name="o" d="M290 -9Q215 -9 160 22T75 112T45 252Q45 333 75 391T160 481T290 513Q365 513 420 482T506 392T537 252Q537 171 507 113T421 23T290 -9ZM290 70Q356 70 395 116T434 252Q434 342 395 387T290 433Q225 433 186 388T147 252Q147
162 185 116T290 70Z" />
<glyph unicode="p" glyph-name="p" horiz-adv-x="609" d="M74 -216V383Q74 412 72 442T66 504H164L174 390H163Q179 447 227 480T343 513Q410 513 460 482T537 392T565 252Q565 171 538 112T460 22T343 -9Q277 -9 229 23T164 112H175V-216H74ZM318 70Q384 70 423
116T463 252Q463 342 424 387T318 433Q252 433 213 388T173 252Q173 162 212 116T318 70Z" />
<glyph unicode="q" glyph-name="q" horiz-adv-x="609" d="M435 -216V112H446Q430 56 381 24T267 -9Q200 -9 150 22T73 112T45 252Q45 334 72 392T150 481T267 513Q333 513 382 480T447 390H436L446 504H544Q541 473 539 443T536 383V-216H435ZM292 70Q357 70 396
116T436 252Q436 342 397 387T292 433Q226 433 187 388T147 252Q147 162 186 116T292 70Z" />
<glyph unicode="r" glyph-name="r" horiz-adv-x="377" d="M72 0V379Q72 410 71 441T66 504H164L175 374H159Q169 421 193 452T251 498T324 513Q340 513 351 512T373 507L372 417Q355 424 343 425T312 427Q268 427 237 408T190 355T174 284V0H72Z" />
<glyph unicode="s" glyph-name="s" horiz-adv-x="498" d="M247 -9Q184 -9 131 7T43 52L74 121Q111 93 156 79T248 65Q303 65 331 84T359 138Q359 164 342 180T284 204L188 223Q124 237 91 271T58 358Q58 403 82 438T152 493T259 513Q315 513 363 497T443 451L411
384Q380 410 341 424T262 439Q206 439 179 418T152 363Q152 337 168 321T221 295L317 276Q385 262 419 230T453 144Q453 97 427 62T355 9T247 -9Z" />
<glyph unicode="t" glyph-name="t" horiz-adv-x="363" d="M270 -9Q188 -9 146 35T104 169V426H6V504H104V637L205 664V504H345V426H205V178Q205 122 225 98T283 74Q302 74 316 77T343 86V4Q328 -2 308 -5T270 -9Z" />
<glyph unicode="u" glyph-name="u" horiz-adv-x="586" d="M253 -9Q162 -9 117 40T71 193V504H172V195Q172 132 198 102T277 72Q337 72 374 112T411 218V504H512V0H414V108H427Q406 52 360 22T253 -9Z" />
<glyph unicode="v" glyph-name="v" horiz-adv-x="537" d="M222 0L6 504H114L284 83H255L428 504H531L314 0H222Z" />
<glyph unicode="w" glyph-name="w" horiz-adv-x="875" d="M211 0L20 504H125L274 84H248L401 504H479L631 84H606L755 504H856L664 0H572L414 428H461L305 0H211Z" />
<glyph unicode="x" glyph-name="x" horiz-adv-x="541" d="M2 0L231 284V236L14 504H135L288 307H252L405 504H525L310 237V283L538 0H417L252 211H288L122 0H2Z" />
<glyph unicode="y" glyph-name="y" horiz-adv-x="536" d="M59 -227L35 -145Q82 -135 113 -121T166 -85T202 -27L227 32L225 -9L6 504H114L284 84H257L427 504H531L300 -36Q278 -86 253 -120T199 -175T135 -208T59 -227Z" />
<glyph unicode="z" glyph-name="z" horiz-adv-x="522" d="M49 0V67L377 451L378 426H49V504H470V437L139 50L138 77H481V0H49Z" />
<glyph unicode="{" glyph-name="braceleft" horiz-adv-x="372" d="M257 -180Q204 -180 176 -151T148 -68V143Q148 184 132 202T77 223L44 225V300L77 303Q116 305 132 323T148 382V593Q148 648 176 676T257 705H362V627H291Q269 627 258 616T247 582V371Q247 341
234 316T200 275T151 260V264Q178 264 199 250T234 211T247 154V-57Q247 -79 258 -90T291 -102H362V-180H257Z" />
<glyph unicode="|" glyph-name="bar" horiz-adv-x="272" d="M86 -185V710H187V-185H86Z" />
<glyph unicode="}" glyph-name="braceright" horiz-adv-x="372" d="M10 -180V-102H81Q104 -102 114 -91T125 -57V154Q125 185 137 210T172 250T221 265V261Q194 261 172 275T138 315T125 371V582Q125 605 115 616T81 627H10V705H115Q168 705 196 677T224 593V382Q224
342 240 324T295 303L328 301V225L295 222Q256 220 240 203T224 143V-68Q224 -122 196 -151T115 -180H10Z" />
<glyph unicode="~" glyph-name="asciitilde" horiz-adv-x="600" d="M414 213Q389 213 361 222T291 254Q251 275 230 282T192 290Q138 290 111 226L53 260Q73 308 107 334T186 361Q211 361 239 353T308 323Q346 303 368 294T408 284Q462 284 489 348L547 314Q527
265 493 239T414 213Z" />
<glyph unicode="&#xa0;" glyph-name="uni00A0" horiz-adv-x="267" />
<glyph unicode="&#xa1;" glyph-name="exclamdown" horiz-adv-x="237" d="M56 -180L88 309H150L181 -180H56ZM59 385V504H178V385H59Z" />
<glyph unicode="&#xa2;" glyph-name="cent" horiz-adv-x="600" d="M275 -115V20L295 -5Q232 3 185 36T113 123T87 244Q87 310 113 362T185 449T294 491L275 462V608H357V467L336 494Q386 494 433 478T509 431L479 361Q450 386 415 399T341 413Q272 413 231 367T190
246Q190 169 230 123T340 76Q378 76 414 89T479 128L509 58Q479 29 432 12T334 -8L357 16V-115H275Z" />
<glyph unicode="&#xa3;" glyph-name="sterling" horiz-adv-x="600" d="M45 0V71Q89 88 114 113T139 178V321H44V386H139V504Q139 570 164 617T241 689T369 714Q429 714 482 695T574 638L535 561Q500 597 460 613T371 629Q306 629 275 599T243 508V386H421V321H244V205Q244
155 223 125T166 81V86H565V0H45Z" />
<glyph unicode="&#xa4;" glyph-name="currency" horiz-adv-x="600" d="M80 -28L33 20L107 95Q84 126 71 164T58 245Q58 288 71 326T107 396L33 471L80 518L154 442Q184 467 221 480T300 493Q340 493 377 481T444 444L517 519L565 470L492 395Q516 364 528 326T540
245Q540 203 528 165T491 94L565 20L518 -27L445 48Q415 24 378 11T300 -3Q259 -3 222 10T153 47L80 -28ZM299 81Q342 81 377 103T432 163T453 245Q453 291 433 328T377 387T299 409Q257 409 222 387T166 328T145 245Q145 200 165 163T221 104T299 81Z" />
<glyph unicode="&#xa5;" glyph-name="yen" horiz-adv-x="600" d="M248 0V173H70V236H248V327H70V390H222V377L-10 705H104L312 404H288L497 705H610L379 377V390H530V327H352V236H530V173H352V0H248Z" />
<glyph unicode="&#xa6;" glyph-name="brokenbar" horiz-adv-x="272" d="M86 372V710H187V372H86ZM86 -185V154H187V-185H86Z" />
<glyph unicode="&#xa7;" glyph-name="section" horiz-adv-x="555" d="M255 -189Q188 -189 133 -173T42 -126L74 -57Q96 -74 125 -87T189 -108T257 -116Q315 -116 350 -90T385 -14Q385 19 366 44T298 91L177 145Q124 170 93 195T47 251T33 318Q33 362 55 401T117
466L109 438Q93 454 84 477T75 532Q75 589 104 629T183 692T300 714Q363 714 415 699T501 653L470 585Q437 610 390 625T298 640Q243 640 208 614T173 539Q173 505 193 481T261 434L381 380Q434 356 465 330T511 274T525 207Q525 163 503 124T442 59L450 87Q465
71 474 48T483 -8Q483 -64 455 -105T375 -167T255 -189ZM125 334Q125 300 147 274T227 220L330 173Q363 158 386 142T424 109L396 107Q434 142 434 190Q434 225 412 251T332 305L228 351Q195 367 172 383T135 416L162 418Q144 401 135 380T125 334Z" />
<glyph unicode="&#xa8;" glyph-name="dieresis" horiz-adv-x="500" d="M291 604V703H390V604H291ZM110 604V703H209V604H110Z" />
<glyph unicode="&#xa9;" glyph-name="copyright" horiz-adv-x="815" d="M408 -9Q332 -9 266 18T150 95T74 210T46 353Q46 430 73 496T150 610T265 686T408 714Q485 714 551 687T665 611T741 496T769 353Q769 277 742 211T666 95T551 19T408 -9ZM423 137Q325 137
268 196T211 355Q211 454 268 511T423 568Q463 568 502 555T567 517L539 455Q515 477 486 487T429 498Q368 498 334 460T299 354Q299 287 333 248T429 208Q457 208 486 218T539 251L567 188Q542 165 502 151T423 137ZM408 39Q475 39 531 62T630 129T695 229T719
353Q719 420 696 477T630 576T532 642T408 666Q341 666 284 643T185 577T120 477T96 353Q96 286 119 229T185 129T284 63T408 39Z" />
<glyph unicode="&#xaa;" glyph-name="ordfeminine" horiz-adv-x="333" d="M133 409Q85 409 54 435T23 502Q23 548 64 568T181 588H237V548H184Q136 548 114 537T91 503Q91 484 105 471T150 458Q184 458 206 481T229 544V602Q229 633 212 647T160 662Q134 662 106
656T54 634L36 683Q61 699 96 706T164 714Q296 714 296 599V415H231V470H229Q213 439 191 424T133 409Z" />
<glyph unicode="&#xab;" glyph-name="guillemotleft" horiz-adv-x="469" d="M155 87L25 268L155 449H240L120 268L240 87H155ZM349 87L219 268L349 449H434L314 268L434 87H349Z" />
<glyph unicode="&#xac;" glyph-name="logicalnot" horiz-adv-x="600" d="M470 145V352H53V425H547V145H470Z" />
<glyph unicode="&#xad;" glyph-name="uni00AD" horiz-adv-x="433" d="M70 234V315H363V234H70Z" />
<glyph unicode="&#xae;" glyph-name="registered" horiz-adv-x="815" d="M408 -9Q332 -9 266 18T150 95T74 210T46 353Q46 430 73 496T150 610T265 686T408 714Q485 714 551 687T665 611T741 496T769 353Q769 277 742 211T666 95T551 19T408 -9ZM408 39Q475 39
531 62T630 129T695 229T719 353Q719 420 696 477T630 576T532 642T408 666Q341 666 284 643T185 577T120 477T96 353Q96 286 119 229T185 129T284 63T408 39ZM259 142V564H436Q505 564 542 531T579 441Q579 383 543 353T439 322L455 333Q487 333 507 319T540 264L584
142H502L458 270Q449 293 433 301T392 309H324L339 320V142H259ZM338 371H425Q464 371 483 387T502 437Q502 471 483 487T425 503H338V371Z" />
<glyph unicode="&#xaf;" glyph-name="overscore" horiz-adv-x="500" d="M97 621V685H403V621H97Z" />
<glyph unicode="&#xb0;" glyph-name="degree" horiz-adv-x="375" d="M188 413Q144 413 110 433T55 487T35 564Q35 607 55 640T109 694T188 714Q231 714 265 695T319 641T339 564Q339 521 319 487T265 433T188 413ZM188 475Q226 475 249 500T272 564Q272 602 249
627T188 652Q150 652 126 627T102 564Q102 525 126 500T188 475Z" />
<glyph unicode="&#xb1;" glyph-name="plusminus" horiz-adv-x="600" d="M262 132V294H53V368H262V530H338V368H547V294H338V132H262ZM53 0V74H547V0H53Z" />
<glyph unicode="&#xb2;" glyph-name="uni00B2" horiz-adv-x="380" d="M49 282V342L187 481Q214 510 226 532T239 580Q239 639 170 639Q143 639 113 628T60 598L37 661Q64 683 103 696T187 709Q252 709 290 677T328 590Q328 556 312 524T258 455L144 342V352H345V282H49Z" />
<glyph unicode="&#xb3;" glyph-name="uni00B3" horiz-adv-x="380" d="M187 278Q139 278 99 289T30 323L51 384Q76 365 109 355T180 344Q216 344 238 359T261 407Q261 437 239 450T180 464H99V527H169Q206 527 227 542T248 587Q248 614 229 628T174 643Q143 643
111 632T56 601L34 662Q61 684 101 696T187 709Q253 709 291 679T330 599Q330 558 305 531T242 495V504Q287 498 314 472T341 398Q341 341 298 310T187 278Z" />
<glyph unicode="&#xb4;" glyph-name="acute" horiz-adv-x="500" d="M215 553L318 755H421L285 553H215Z" />
<glyph unicode="&#xb5;" glyph-name="uni00B5" horiz-adv-x="575" d="M68 -203V504H169V190Q169 130 194 102T271 74Q331 74 368 112T405 215V504H506V0H407V107H413Q398 51 360 21T270 -9Q230 -9 200 5T152 60H161L169 -203H68Z" />
<glyph unicode="&#xb6;" glyph-name="paragraph" horiz-adv-x="614" d="M250 -180V297Q187 297 140 323T67 395T41 502Q41 562 67 607T141 679T253 705H531V-180H454V631H327V-180H250Z" />
<glyph unicode="&#xb7;" glyph-name="middot" horiz-adv-x="240" d="M60 215V334H180V215H60Z" />
<glyph unicode="&#xb8;" glyph-name="cedilla" horiz-adv-x="500" d="M252 -194Q224 -194 200 -189T156 -173L172 -124Q190 -132 207 -136T245 -140Q272 -140 287 -132T303 -107Q303 -81 265 -81Q255 -81 245 -82T220 -88L202 -72L217 20H275L262 -56L234 -47Q246
-44 258 -42T280 -40Q319 -40 343 -58T367 -110Q367 -147 335 -170T252 -194Z" />
<glyph unicode="&#xb9;" glyph-name="uni00B9" horiz-adv-x="380" d="M72 282V352H170V633H206L81 562V642L191 705H253V352H339V282H72Z" />
<glyph unicode="&#xba;" glyph-name="ordmasculine" horiz-adv-x="348" d="M174 410Q130 410 96 429T43 482T23 563Q23 610 42 643T96 695T174 714Q218 714 252 696T306 644T326 563Q326 517 306 483T252 429T174 410ZM174 464Q212 464 234 489T256 563Q256 611
234 636T174 661Q136 661 114 637T92 563Q92 514 114 489T174 464Z" />
<glyph unicode="&#xbb;" glyph-name="guillemotright" horiz-adv-x="469" d="M120 87H34L155 268L34 449H121L250 268L120 87ZM314 87H228L349 268L228 449H315L444 268L314 87Z" />
<glyph unicode="&#xbc;" glyph-name="onequarter" horiz-adv-x="904" d="M72 282V352H170V633H206L81 562V642L191 705H253V352H339V282H72ZM309 -9H220L648 714H736L309 -9ZM750 0V80H552V139L758 423H827V145H889V80H827V0H750ZM752 145V337H762L613 130V145H752Z" />
<glyph unicode="&#xbd;" glyph-name="onehalf" horiz-adv-x="950" d="M72 282V352H170V633H206L81 562V642L191 705H253V352H339V282H72ZM309 -9H220L648 714H736L309 -9ZM619 0V60L757 199Q784 228 796 250T809 298Q809 357 740 357Q713 357 683 346T630 316L607
379Q634 401 673 414T757 427Q822 427 860 395T898 308Q898 274 882 242T828 173L714 60V70H915V0H619Z" />
<glyph unicode="&#xbe;" glyph-name="threequarters" horiz-adv-x="904" d="M187 278Q139 278 99 289T30 323L51 384Q76 365 109 355T180 344Q216 344 238 359T261 407Q261 437 239 450T180 464H99V527H169Q206 527 227 542T248 587Q248 614 229 628T174 643Q143
643 111 632T56 601L34 662Q61 684 101 696T187 709Q253 709 291 679T330 599Q330 558 305 531T242 495V504Q287 498 314 472T341 398Q341 341 298 310T187 278ZM309 -9H220L648 714H736L309 -9ZM750 0V80H552V139L758 423H827V145H889V80H827V0H750ZM752 145V337H762L613
130V145H752Z" />
<glyph unicode="&#xbf;" glyph-name="questiondown" horiz-adv-x="455" d="M228 -206Q170 -206 125 -188T55 -133T29 -46Q29 -13 38 14T68 71T125 134Q174 181 193 216T217 287L221 308H283V279Q283 231 265 188T199 94Q162 54 147 25T132 -37Q132 -76 161 -98T240
-120Q279 -120 316 -109T386 -78V-168Q353 -186 312 -196T228 -206ZM312 503V384H193V503H312Z" />
<glyph unicode="&#xc0;" glyph-name="Agrave" horiz-adv-x="742" d="M10 0L324 705H413L732 0H625L538 200L582 172H155L202 200L115 0H10ZM367 591L215 232L191 255H546L526 232L371 591H367ZM332 765L179 938H288L406 765H332Z" />
<glyph unicode="&#xc1;" glyph-name="Aacute" horiz-adv-x="742" d="M10 0L324 705H413L732 0H625L538 200L582 172H155L202 200L115 0H10ZM367 591L215 232L191 255H546L526 232L371 591H367ZM332 765L450 938H559L406 765H332Z" />
<glyph unicode="&#xc2;" glyph-name="Acircumflex" horiz-adv-x="742" d="M10 0L324 705H413L732 0H625L538 200L582 172H155L202 200L115 0H10ZM367 591L215 232L191 255H546L526 232L371 591H367ZM201 765L324 938H414L537 765H465L369 877L273 765H201Z" />
<glyph unicode="&#xc3;" glyph-name="Atilde" horiz-adv-x="742" d="M10 0L324 705H413L732 0H625L538 200L582 172H155L202 200L115 0H10ZM367 591L215 232L191 255H546L526 232L371 591H367ZM207 778L154 781Q159 848 193 884T280 921Q303 921 326 912T383 883Q413
865 430 858T461 850Q490 850 507 869T531 925L584 921Q579 854 545 818T459 781Q436 781 412 790T352 822Q324 840 308 846T277 853Q248 853 231 834T207 778Z" />
<glyph unicode="&#xc4;" glyph-name="Adieresis" horiz-adv-x="742" d="M10 0L324 705H413L732 0H625L538 200L582 172H155L202 200L115 0H10ZM367 591L215 232L191 255H546L526 232L371 591H367ZM410 799V898H509V799H410ZM229 799V898H328V799H229Z" />
<glyph unicode="&#xc5;" glyph-name="Aring" horiz-adv-x="742" d="M10 0L324 705H413L732 0H625L538 200L582 172H155L202 200L115 0H10ZM367 591L215 232L191 255H546L526 232L371 591H367ZM369 756Q335 756 307 772T263 816T247 876Q247 910 263 936T307 978T369
994Q404 994 431 979T475 936T491 876Q491 843 475 816T432 773T369 756ZM369 806Q400 806 419 826T438 876Q438 905 419 924T369 944Q339 944 320 925T300 876Q300 846 319 826T369 806Z" />
<glyph unicode="&#xc6;" glyph-name="AE" horiz-adv-x="1011" d="M-10 0L425 705H965V622H575L598 644L621 372L604 400H943V316H609L625 326L649 58L635 84H965V0H558L541 195L568 172H191L224 200L103 0H-10ZM476 621L242 231L233 256H548L539 229L504 621H476Z" />
<glyph unicode="&#xc7;" glyph-name="Ccedilla" horiz-adv-x="685" d="M400 -9Q292 -9 216 35T100 160T59 353Q59 464 99 545T216 670T400 714Q475 714 534 692T637 628L601 545Q553 586 508 604T402 622Q288 622 228 552T168 353Q168 224 228 154T402 83Q462
83 507 101T601 161L637 78Q593 36 534 14T400 -9ZM396 -194Q368 -194 344 -189T300 -173L316 -124Q334 -132 351 -136T389 -140Q416 -140 431 -132T447 -107Q447 -81 409 -81Q399 -81 389 -82T364 -88L346 -72L361 20H419L406 -56L378 -47Q390 -44 402 -42T424
-40Q463 -40 487 -58T511 -110Q511 -147 479 -170T396 -194Z" />
<glyph unicode="&#xc8;" glyph-name="Egrave" horiz-adv-x="591" d="M83 0V705H545V622H184V400H522V316H184V84H545V0H83ZM293 765L140 938H249L367 765H293Z" />
<glyph unicode="&#xc9;" glyph-name="Eacute" horiz-adv-x="591" d="M83 0V705H545V622H184V400H522V316H184V84H545V0H83ZM293 765L411 938H520L367 765H293Z" />
<glyph unicode="&#xca;" glyph-name="Ecircumflex" horiz-adv-x="591" d="M83 0V705H545V622H184V400H522V316H184V84H545V0H83ZM162 765L285 938H375L498 765H426L330 877L234 765H162Z" />
<glyph unicode="&#xcb;" glyph-name="Edieresis" horiz-adv-x="591" d="M83 0V705H545V622H184V400H522V316H184V84H545V0H83ZM371 799V898H470V799H371ZM190 799V898H289V799H190Z" />
<glyph unicode="&#xcc;" glyph-name="Igrave" horiz-adv-x="270" d="M83 0V705H187V0H83ZM98 765L-55 938H54L172 765H98Z" />
<glyph unicode="&#xcd;" glyph-name="Iacute" horiz-adv-x="270" d="M83 0V705H187V0H83ZM98 765L216 938H325L172 765H98Z" />
<glyph unicode="&#xce;" glyph-name="Icircumflex" horiz-adv-x="270" d="M83 0V705H187V0H83ZM-33 765L90 938H180L303 765H231L135 877L39 765H-33Z" />
<glyph unicode="&#xcf;" glyph-name="Idieresis" horiz-adv-x="270" d="M83 0V705H187V0H83ZM176 799V898H275V799H176ZM-5 799V898H94V799H-5Z" />
<glyph unicode="&#xd0;" glyph-name="Eth" horiz-adv-x="754" d="M83 0V705H327Q446 705 528 664T653 545T696 353Q696 241 654 162T529 42T327 0H83ZM187 87H321Q457 87 523 153T590 353Q590 487 524 552T321 618H187V87ZM-2 319V396H383V319H-2Z" />
<glyph unicode="&#xd1;" glyph-name="Ntilde" horiz-adv-x="750" d="M83 0V705H163L596 137H571V705H668V0H589L157 568H180V0H83ZM215 778L162 781Q167 848 201 884T288 921Q311 921 334 912T391 883Q421 865 438 858T469 850Q498 850 515 869T539 925L592 921Q587
854 553 818T467 781Q444 781 420 790T360 822Q332 840 316 846T285 853Q256 853 239 834T215 778Z" />
<glyph unicode="&#xd2;" glyph-name="Ograve" horiz-adv-x="779" d="M59 353Q59 464 98 545T211 670T389 714Q491 714 565 670T679 545T720 354Q720 243 680 162T565 36T389 -9Q286 -9 212 35T99 161T59 353ZM168 353Q168 225 224 153T389 81Q495 81 553 152T611
353Q611 482 554 553T389 624Q280 624 224 553T168 353ZM352 765L199 938H308L426 765H352Z" />
<glyph unicode="&#xd3;" glyph-name="Oacute" horiz-adv-x="779" d="M59 353Q59 464 98 545T211 670T389 714Q491 714 565 670T679 545T720 354Q720 243 680 162T565 36T389 -9Q286 -9 212 35T99 161T59 353ZM168 353Q168 225 224 153T389 81Q495 81 553 152T611
353Q611 482 554 553T389 624Q280 624 224 553T168 353ZM352 765L470 938H579L426 765H352Z" />
<glyph unicode="&#xd4;" glyph-name="Ocircumflex" horiz-adv-x="779" d="M59 353Q59 464 98 545T211 670T389 714Q491 714 565 670T679 545T720 354Q720 243 680 162T565 36T389 -9Q286 -9 212 35T99 161T59 353ZM168 353Q168 225 224 153T389 81Q495 81 553
152T611 353Q611 482 554 553T389 624Q280 624 224 553T168 353ZM221 765L344 938H434L557 765H485L389 877L293 765H221Z" />
<glyph unicode="&#xd5;" glyph-name="Otilde" horiz-adv-x="779" d="M59 353Q59 464 98 545T211 670T389 714Q491 714 565 670T679 545T720 354Q720 243 680 162T565 36T389 -9Q286 -9 212 35T99 161T59 353ZM168 353Q168 225 224 153T389 81Q495 81 553 152T611
353Q611 482 554 553T389 624Q280 624 224 553T168 353ZM227 778L174 781Q179 848 213 884T300 921Q323 921 346 912T403 883Q433 865 450 858T481 850Q510 850 527 869T551 925L604 921Q599 854 565 818T479 781Q456 781 432 790T372 822Q344 840 328 846T297
853Q268 853 251 834T227 778Z" />
<glyph unicode="&#xd6;" glyph-name="Odieresis" horiz-adv-x="779" d="M59 353Q59 464 98 545T211 670T389 714Q491 714 565 670T679 545T720 354Q720 243 680 162T565 36T389 -9Q286 -9 212 35T99 161T59 353ZM168 353Q168 225 224 153T389 81Q495 81 553 152T611
353Q611 482 554 553T389 624Q280 624 224 553T168 353ZM430 799V898H529V799H430ZM249 799V898H348V799H249Z" />
<glyph unicode="&#xd7;" glyph-name="multiply" horiz-adv-x="600" d="M118 50L66 102L248 285L66 468L118 520L300 338L483 520L535 468L352 285L535 102L483 50L300 233L118 50Z" />
<glyph unicode="&#xd8;" glyph-name="Oslash" horiz-adv-x="779" d="M59 353Q59 464 98 545T211 670T389 714Q491 714 565 670T679 545T720 354Q720 243 680 162T565 36T389 -9Q286 -9 212 35T99 161T59 353ZM168 353Q168 225 224 153T389 81Q495 81 553 152T611
353Q611 482 554 553T389 624Q280 624 224 553T168 353ZM261 47L203 -53L134 -13L192 88L225 132L507 614L525 658L583 758L652 718L594 617L561 573L279 91L261 47Z" />
<glyph unicode="&#xd9;" glyph-name="Ugrave" horiz-adv-x="735" d="M369 -9Q222 -9 151 65T79 284V705H183V286Q183 184 227 133T369 81Q461 81 508 132T555 286V705H657V284Q657 139 584 65T369 -9ZM332 765L179 938H288L406 765H332Z" />
<glyph unicode="&#xda;" glyph-name="Uacute" horiz-adv-x="735" d="M369 -9Q222 -9 151 65T79 284V705H183V286Q183 184 227 133T369 81Q461 81 508 132T555 286V705H657V284Q657 139 584 65T369 -9ZM332 765L450 938H559L406 765H332Z" />
<glyph unicode="&#xdb;" glyph-name="Ucircumflex" horiz-adv-x="735" d="M369 -9Q222 -9 151 65T79 284V705H183V286Q183 184 227 133T369 81Q461 81 508 132T555 286V705H657V284Q657 139 584 65T369 -9ZM201 765L324 938H414L537 765H465L369 877L273 765H201Z" />
<glyph unicode="&#xdc;" glyph-name="Udieresis" horiz-adv-x="735" d="M369 -9Q222 -9 151 65T79 284V705H183V286Q183 184 227 133T369 81Q461 81 508 132T555 286V705H657V284Q657 139 584 65T369 -9ZM410 799V898H509V799H410ZM229 799V898H328V799H229Z" />
<glyph unicode="&#xdd;" glyph-name="Yacute" horiz-adv-x="617" d="M256 0V331L279 265L-18 705H102L323 368H298L519 705H635L339 265L360 331V0H256ZM272 765L390 938H499L346 765H272Z" />
<glyph unicode="&#xde;" glyph-name="Thorn" horiz-adv-x="659" d="M83 0V705H187V575H379Q492 575 554 521T616 370Q616 275 554 220T379 164H187V0H83ZM187 248H372Q442 248 478 280T514 370Q514 428 478 460T372 492H187V248Z" />
<glyph unicode="&#xdf;" glyph-name="germandbls" horiz-adv-x="652" d="M74 0V484Q74 611 137 677T326 743Q392 743 438 722T511 662T537 568Q537 504 500 453T366 362V381Q455 357 512 327T596 256T623 162Q623 109 598 71T528 12T420 -9Q380 -9 347 -2T287
18T235 51L264 120Q302 93 338 80T419 67Q470 67 498 90T526 159Q526 192 505 221T432 276T286 326V405Q345 426 379 450T428 503T442 566Q442 611 412 638T327 665Q249 665 212 624T175 496V0H74Z" />
<glyph unicode="&#xe0;" glyph-name="agrave" horiz-adv-x="609" d="M267 -9Q200 -9 150 22T73 112T45 252Q45 334 72 392T150 481T267 513Q333 513 382 480T447 390H436L446 504H544Q541 473 539 443T536 383V0H435V112H446Q430 56 381 24T267 -9ZM292 70Q357
70 396 116T436 252Q436 342 397 387T292 433Q226 433 187 388T147 252Q147 162 186 116T292 70ZM264 553L128 755H231L334 553H264Z" />
<glyph unicode="&#xe1;" glyph-name="aacute" horiz-adv-x="609" d="M267 -9Q200 -9 150 22T73 112T45 252Q45 334 72 392T150 481T267 513Q333 513 382 480T447 390H436L446 504H544Q541 473 539 443T536 383V0H435V112H446Q430 56 381 24T267 -9ZM292 70Q357
70 396 116T436 252Q436 342 397 387T292 433Q226 433 187 388T147 252Q147 162 186 116T292 70ZM264 553L367 755H470L334 553H264Z" />
<glyph unicode="&#xe2;" glyph-name="acircumflex" horiz-adv-x="609" d="M267 -9Q200 -9 150 22T73 112T45 252Q45 334 72 392T150 481T267 513Q333 513 382 480T447 390H436L446 504H544Q541 473 539 443T536 383V0H435V112H446Q430 56 381 24T267 -9ZM292 70Q357
70 396 116T436 252Q436 342 397 387T292 433Q226 433 187 388T147 252Q147 162 186 116T292 70ZM143 553L253 755H345L455 553H388L299 693L210 553H143Z" />
<glyph unicode="&#xe3;" glyph-name="atilde" horiz-adv-x="609" d="M267 -9Q200 -9 150 22T73 112T45 252Q45 334 72 392T150 481T267 513Q333 513 382 480T447 390H436L446 504H544Q541 473 539 443T536 383V0H435V112H446Q430 56 381 24T267 -9ZM292 70Q357
70 396 116T436 252Q436 342 397 387T292 433Q226 433 187 388T147 252Q147 162 186 116T292 70ZM166 587L113 591Q118 658 148 694T226 731Q247 731 266 721T309 692Q330 674 343 667T370 659Q421 659 432 734L485 731Q481 664 451 628T373 591Q352 591 333 600T288
630Q268 648 255 655T228 662Q201 662 186 643T166 587Z" />
<glyph unicode="&#xe4;" glyph-name="adieresis" horiz-adv-x="609" d="M267 -9Q200 -9 150 22T73 112T45 252Q45 334 72 392T150 481T267 513Q333 513 382 480T447 390H436L446 504H544Q541 473 539 443T536 383V0H435V112H446Q430 56 381 24T267 -9ZM292 70Q357
70 396 116T436 252Q436 342 397 387T292 433Q226 433 187 388T147 252Q147 162 186 116T292 70ZM340 604V703H439V604H340ZM159 604V703H258V604H159Z" />
<glyph unicode="&#xe5;" glyph-name="aring" horiz-adv-x="609" d="M267 -9Q200 -9 150 22T73 112T45 252Q45 334 72 392T150 481T267 513Q333 513 382 480T447 390H436L446 504H544Q541 473 539 443T536 383V0H435V112H446Q430 56 381 24T267 -9ZM292 70Q357
70 396 116T436 252Q436 342 397 387T292 433Q226 433 187 388T147 252Q147 162 186 116T292 70ZM299 546Q265 546 237 562T193 605T177 665Q177 699 193 725T237 768T299 784Q334 784 361 768T405 725T421 665Q421 632 405 605T362 562T299 546ZM299 596Q330 596
349 616T368 665Q368 695 349 714T299 734Q269 734 250 715T230 665Q230 635 249 616T299 596Z" />
<glyph unicode="&#xe6;" glyph-name="ae" horiz-adv-x="877" d="M237 -9Q182 -9 141 12T76 68T53 147Q53 205 79 238T169 286T342 300H393V242H342Q267 242 224 234T164 206T146 152Q146 113 174 88T250 63Q289 63 318 80T365 130T382 205V325Q382 383 356 408T273
434Q228 434 188 423T105 385L74 456Q113 483 166 498T276 513Q352 513 396 484T457 396H429Q460 453 508 483T623 513Q721 513 778 449T835 272V242H467V300H766L749 285Q749 359 716 400T621 441Q555 441 517 398T479 268V261Q479 168 520 119T641 70Q683 70
722 83T796 125L829 55Q794 24 743 8T638 -9Q550 -9 492 29T410 141H433Q417 70 365 31T237 -9Z" />
<glyph unicode="&#xe7;" glyph-name="ccedilla" horiz-adv-x="499" d="M295 -9Q219 -9 163 22T76 113T45 255Q45 336 76 394T163 482T295 513Q344 513 390 497T466 450L433 379Q405 406 370 419T302 433Q230 433 189 387T148 254Q148 166 189 119T302 72Q334 72
369 84T433 125L466 54Q435 24 389 8T295 -9ZM292 -194Q264 -194 240 -189T196 -173L212 -124Q230 -132 247 -136T285 -140Q312 -140 327 -132T343 -107Q343 -81 305 -81Q295 -81 285 -82T260 -88L242 -72L257 20H315L302 -56L274 -47Q286 -44 298 -42T320 -40Q359
-40 383 -58T407 -110Q407 -147 375 -170T292 -194Z" />
<glyph unicode="&#xe8;" glyph-name="egrave" horiz-adv-x="546" d="M307 -9Q185 -9 115 60T45 251Q45 330 75 389T160 480T287 513Q358 513 406 483T479 399T504 270V238H124V296H435L418 283Q418 358 385 399T288 441Q218 441 180 393T142 259V249Q142 160 185
115T309 70Q353 70 391 82T465 124L498 55Q463 24 413 8T307 -9ZM252 553L116 755H219L322 553H252Z" />
<glyph unicode="&#xe9;" glyph-name="eacute" horiz-adv-x="546" d="M307 -9Q185 -9 115 60T45 251Q45 330 75 389T160 480T287 513Q358 513 406 483T479 399T504 270V238H124V296H435L418 283Q418 358 385 399T288 441Q218 441 180 393T142 259V249Q142 160 185
115T309 70Q353 70 391 82T465 124L498 55Q463 24 413 8T307 -9ZM252 553L355 755H458L322 553H252Z" />
<glyph unicode="&#xea;" glyph-name="ecircumflex" horiz-adv-x="546" d="M307 -9Q185 -9 115 60T45 251Q45 330 75 389T160 480T287 513Q358 513 406 483T479 399T504 270V238H124V296H435L418 283Q418 358 385 399T288 441Q218 441 180 393T142 259V249Q142
160 185 115T309 70Q353 70 391 82T465 124L498 55Q463 24 413 8T307 -9ZM131 553L241 755H333L443 553H376L287 693L198 553H131Z" />
<glyph unicode="&#xeb;" glyph-name="edieresis" horiz-adv-x="546" d="M307 -9Q185 -9 115 60T45 251Q45 330 75 389T160 480T287 513Q358 513 406 483T479 399T504 270V238H124V296H435L418 283Q418 358 385 399T288 441Q218 441 180 393T142 259V249Q142 160
185 115T309 70Q353 70 391 82T465 124L498 55Q463 24 413 8T307 -9ZM328 604V703H427V604H328ZM147 604V703H246V604H147Z" />
<glyph unicode="&#xec;" glyph-name="igrave" horiz-adv-x="249" d="M74 0V504H175V0H74ZM90 553L-46 755H57L160 553H90Z" />
<glyph unicode="&#xed;" glyph-name="iacute" horiz-adv-x="249" d="M74 0V504H175V0H74ZM90 553L193 755H296L160 553H90Z" />
<glyph unicode="&#xee;" glyph-name="icircumflex" horiz-adv-x="249" d="M74 0V504H175V0H74ZM-31 553L79 755H171L281 553H214L125 693L36 553H-31Z" />
<glyph unicode="&#xef;" glyph-name="idieresis" horiz-adv-x="249" d="M74 0V504H175V0H74ZM166 604V703H265V604H166ZM-15 604V703H84V604H-15Z" />
<glyph unicode="&#xf0;" glyph-name="eth" horiz-adv-x="587" d="M289 -9Q216 -9 161 20T75 102T45 225Q45 294 74 346T157 428T282 457Q356 457 403 422T472 311H446Q447 394 413 468T313 596L334 593L137 507L114 558L283 630L282 617Q252 638 216 653T139 677L159
744Q223 732 275 710T369 656L348 659L466 710L489 660L390 617L394 635Q445 591 477 534T526 413T542 282Q542 189 513 124T427 25T289 -9ZM291 71Q358 71 397 112T436 224Q436 296 398 337T291 378Q225 378 186 337T147 224Q147 152 185 112T291 71Z" />
<glyph unicode="&#xf1;" glyph-name="ntilde" horiz-adv-x="593" d="M74 0V383Q74 412 72 442T66 504H164L173 398H161Q184 454 232 483T343 513Q432 513 477 464T523 312V0H422V306Q422 373 396 402T315 432Q251 432 213 393T175 286V0H74ZM164 587L111 591Q116
658 146 694T224 731Q245 731 264 721T307 692Q328 674 341 667T368 659Q419 659 430 734L483 731Q479 664 449 628T371 591Q350 591 331 600T286 630Q266 648 253 655T226 662Q199 662 184 643T164 587Z" />
<glyph unicode="&#xf2;" glyph-name="ograve" d="M290 -9Q215 -9 160 22T75 112T45 252Q45 333 75 391T160 481T290 513Q365 513 420 482T506 392T537 252Q537 171 507 113T421 23T290 -9ZM290 70Q356 70 395 116T434 252Q434 342 395 387T290 433Q225 433 186
388T147 252Q147 162 185 116T290 70ZM256 553L120 755H223L326 553H256Z" />
<glyph unicode="&#xf3;" glyph-name="oacute" d="M290 -9Q215 -9 160 22T75 112T45 252Q45 333 75 391T160 481T290 513Q365 513 420 482T506 392T537 252Q537 171 507 113T421 23T290 -9ZM290 70Q356 70 395 116T434 252Q434 342 395 387T290 433Q225 433 186
388T147 252Q147 162 185 116T290 70ZM256 553L359 755H462L326 553H256Z" />
<glyph unicode="&#xf4;" glyph-name="ocircumflex" d="M290 -9Q215 -9 160 22T75 112T45 252Q45 333 75 391T160 481T290 513Q365 513 420 482T506 392T537 252Q537 171 507 113T421 23T290 -9ZM290 70Q356 70 395 116T434 252Q434 342 395 387T290 433Q225 433
186 388T147 252Q147 162 185 116T290 70ZM135 553L245 755H337L447 553H380L291 693L202 553H135Z" />
<glyph unicode="&#xf5;" glyph-name="otilde" d="M290 -9Q215 -9 160 22T75 112T45 252Q45 333 75 391T160 481T290 513Q365 513 420 482T506 392T537 252Q537 171 507 113T421 23T290 -9ZM290 70Q356 70 395 116T434 252Q434 342 395 387T290 433Q225 433 186
388T147 252Q147 162 185 116T290 70ZM158 587L105 591Q110 658 140 694T218 731Q239 731 258 721T301 692Q322 674 335 667T362 659Q413 659 424 734L477 731Q473 664 443 628T365 591Q344 591 325 600T280 630Q260 648 247 655T220 662Q193 662 178 643T158 587Z"
/>
<glyph unicode="&#xf6;" glyph-name="odieresis" d="M290 -9Q215 -9 160 22T75 112T45 252Q45 333 75 391T160 481T290 513Q365 513 420 482T506 392T537 252Q537 171 507 113T421 23T290 -9ZM290 70Q356 70 395 116T434 252Q434 342 395 387T290 433Q225 433
186 388T147 252Q147 162 185 116T290 70ZM332 604V703H431V604H332ZM151 604V703H250V604H151Z" />
<glyph unicode="&#xf7;" glyph-name="divide" horiz-adv-x="600" d="M53 250V324H547V250H53ZM248 42V136H342V42H248ZM248 438V532H342V438H248Z" />
<glyph unicode="&#xf8;" glyph-name="oslash" d="M290 -9Q215 -9 160 22T75 112T45 252Q45 333 75 391T160 481T290 513Q365 513 420 482T506 392T537 252Q537 171 507 113T421 23T290 -9ZM290 70Q362 70 401 117T441 252Q441 340 402 386T290 433Q219 433 180
387T140 252Q140 165 179 118T290 70ZM153 -44L103 -13L429 548L480 517L153 -44Z" />
<glyph unicode="&#xf9;" glyph-name="ugrave" horiz-adv-x="586" d="M253 -9Q162 -9 117 40T71 193V504H172V195Q172 132 198 102T277 72Q337 72 374 112T411 218V504H512V0H414V108H427Q406 52 360 22T253 -9ZM258 554L122 756H225L328 554H258Z" />
<glyph unicode="&#xfa;" glyph-name="uacute" horiz-adv-x="586" d="M253 -9Q162 -9 117 40T71 193V504H172V195Q172 132 198 102T277 72Q337 72 374 112T411 218V504H512V0H414V108H427Q406 52 360 22T253 -9ZM258 554L361 756H464L328 554H258Z" />
<glyph unicode="&#xfb;" glyph-name="ucircumflex" horiz-adv-x="586" d="M253 -9Q162 -9 117 40T71 193V504H172V195Q172 132 198 102T277 72Q337 72 374 112T411 218V504H512V0H414V108H427Q406 52 360 22T253 -9ZM137 554L247 756H339L449 554H382L293 694L204
554H137Z" />
<glyph unicode="&#xfc;" glyph-name="udieresis" horiz-adv-x="586" d="M253 -9Q162 -9 117 40T71 193V504H172V195Q172 132 198 102T277 72Q337 72 374 112T411 218V504H512V0H414V108H427Q406 52 360 22T253 -9ZM334 605V704H433V605H334ZM153 605V704H252V605H153Z" />
<glyph unicode="&#xfd;" glyph-name="yacute" horiz-adv-x="536" d="M59 -227L35 -145Q82 -135 113 -121T166 -85T202 -27L227 32L225 -9L6 504H114L284 84H257L427 504H531L300 -36Q278 -86 253 -120T199 -175T135 -208T59 -227ZM233 553L336 755H439L303 553H233Z" />
<glyph unicode="&#xfe;" glyph-name="thorn" horiz-adv-x="609" d="M74 -216V736H175V390H163Q179 447 228 480T343 513Q410 513 460 482T537 392T565 252Q565 171 538 112T461 22T344 -9Q277 -9 229 23T164 112H175V-216H74ZM319 70Q384 70 423 116T463 252Q463
342 424 387T319 433Q253 433 213 388T173 252Q173 162 213 116T319 70Z" />
<glyph unicode="&#xff;" glyph-name="ydieresis" horiz-adv-x="536" d="M59 -227L35 -145Q82 -135 113 -121T166 -85T202 -27L227 32L225 -9L6 504H114L284 84H257L427 504H531L300 -36Q278 -86 253 -120T199 -175T135 -208T59 -227ZM309 604V703H408V604H309ZM128
604V703H227V604H128Z" />
<glyph unicode="&#x2013;" glyph-name="endash" horiz-adv-x="505" d="M0 243V306H505V243H0Z" />
<glyph unicode="&#x2014;" glyph-name="emdash" horiz-adv-x="1010" d="M0 243V306H1010V243H0Z" />
<glyph unicode="&#x2018;" glyph-name="quoteleft" horiz-adv-x="237" d="M59 470V551Q59 596 74 635T128 712L173 677Q143 647 133 621T122 567L94 589H178V470H59Z" />
<glyph unicode="&#x2019;" glyph-name="quoteright" horiz-adv-x="237" d="M111 464L67 498Q96 528 106 554T117 608L144 587H60V705H179V624Q179 579 164 541T111 464Z" />
<glyph unicode="&#x201a;" glyph-name="quotesinglbase" horiz-adv-x="237" d="M111 -123L67 -89Q93 -61 105 -36T117 22L144 0H60V119H179V38Q179 -10 164 -48T111 -123Z" />
<glyph unicode="&#x201c;" glyph-name="quotedblleft" horiz-adv-x="419" d="M59 470V551Q59 596 74 635T128 712L173 677Q143 647 133 621T122 567L94 589H178V470H59ZM241 470V551Q241 596 256 635T310 712L355 677Q325 647 315 621T304 567L276 589H360V470H241Z" />
<glyph unicode="&#x201d;" glyph-name="quotedblright" horiz-adv-x="419" d="M111 464L67 498Q96 528 106 554T117 608L144 587H60V705H179V624Q179 579 164 541T111 464ZM293 464L249 498Q278 528 288 554T299 608L326 587H242V705H361V624Q361 579 346 541T293 464Z" />
<glyph unicode="&#x201e;" glyph-name="quotedblbase" horiz-adv-x="419" d="M111 -123L67 -89Q93 -61 105 -36T117 22L144 0H60V119H179V38Q179 -10 164 -48T111 -123ZM293 -123L249 -89Q275 -61 287 -36T299 22L326 0H242V119H361V38Q361 -10 346 -48T293 -123Z" />
<glyph unicode="&#x2022;" glyph-name="bullet" horiz-adv-x="529" d="M265 89Q216 89 174 112T107 177T82 268Q82 314 105 355T170 421T265 447Q314 447 355 424T421 360T447 268Q447 219 423 178T357 113T265 89Z" />
<glyph unicode="&#x2039;" glyph-name="guilsinglleft" horiz-adv-x="275" d="M155 87L25 268L155 449H240L120 268L240 87H155Z" />
<glyph unicode="&#x203a;" glyph-name="guilsinglright" horiz-adv-x="275" d="M120 87H34L155 268L34 449H121L250 268L120 87Z" />
</font>
</defs>
</svg>
